注册 登录  
 加关注
   显示下一条  |  关闭
温馨提示!由于新浪微博认证机制调整,您的新浪微博帐号绑定已过期,请重新绑定!立即重新绑定新浪微博》  |  关闭

Jam Space

何以为友,唯音乐、摄影、篮球尔

 
 
 

日志

 
 

Nightmares On Wax - My Definition (2006)[分轨FLAC/纳米]  

2009-06-11 10:32:32|  分类: 音乐资源 |  标签: |举报 |字号 订阅

  下载LOFTER 我的照片书  |




发行年份 : 2006
音乐风格: Electronic, Lounge, Trip-Hop, Chillout
专辑时长: 65:09 min
专辑曲数: 17

文档备注: 分轨FLAC | 396MB | 含图,含cue





专辑简介:
NOW一直是我很喜欢的英国电子组合之一,他们的作品经常出现在一些驰放电子乐合辑之中,也是德玛咖啡的常客,这张专辑尽管并不都是他们的作品,但相信大家还是会喜欢的。



专辑曲目:

01. Paris - I Choose You
02. Billy Wright - Summer Love (Beyond there remix)
03. Das EFX - They Want Efx
04. Camp Lo - Black Nostaljack
05. Lona - Fruzkiwola Optymistow
06. Black Grass featuring Ra Khahn - Going Home
07. JD73 - Happy People
08. Blade - Lyrical Maniac
09. Greedy B - Cool Breeze
10. Farid - Sunday Paper
11. Western Roots - Rockers Galone
12. The Nextmen featuriing Demolition Man - Piece of the Pie
13. The Equals - Funky like a Train
14. Ingram - Djs Delight
15. Leisure Allstars - Get Your Hands in the Air
16. Nightmares On Wax - Roll Call
17. Nightmares On Wax - Don't Let It Get You Down

Exact Audio Copy V0.99 prebeta 4 from 23. January 2008

EAC extraction logfile from 18. January 2009, 20:10

Various / My Definition

Used drive : _NEC DVD_RW ND-3540A Adapter: 1 ID: 0

Read mode : Secure
Utilize accurate stream : Yes
Defeat audio cache : Yes
Make use of C2 pointers : No

Read offset correction : 48
Overread into Lead-In and Lead-Out : No
Fill up missing offset samples with silence : Yes
Delete leading and trailing silent blocks : No
Null samples used in CRC calculations : Yes
Used interface : Native Win32 interface for Win NT & 2000
Gap handling : Appended to previous track

Used output format : User Defined Encoder
Selected bitrate : 768 kBit/s
Quality : High
Add ID3 tag : No
Command line compressor : C:\Program Files\Exact Audio Copy\FLAC\FLAC.EXE
Additional command line options : -8 -V -T "ARTIST=%a" -T "TITLE=%t" -T "ALBUM=%g" -T "DATE=%y" -T "TRACKNUMBER=%n" -T "GENRE=%m" -T "COMMENT=EAC FLAC -8" %s


TOC of the extracted CD

Track | Start | Length | Start sector | End sector
---------------------------------------------------------
1 | 0:00.00 | 4:18.29 | 0 | 19378
2 | 4:18.29 | 4:00.25 | 19379 | 37403
3 | 8:18.54 | 3:32.11 | 37404 | 53314
4 | 11:50.65 | 4:00.32 | 53315 | 71346
5 | 15:51.22 | 1:55.18 | 71347 | 79989
6 | 17:46.40 | 4:48.34 | 79990 | 101623
7 | 22:34.74 | 4:35.74 | 101624 | 122322
8 | 27:10.73 | 3:05.03 | 122323 | 136200
9 | 30:16.01 | 2:41.00 | 136201 | 148275
10 | 32:57.01 | 3:31.43 | 148276 | 164143
11 | 36:28.44 | 3:41.08 | 164144 | 180726
12 | 40:09.52 | 5:48.21 | 180727 | 206847
13 | 45:57.73 | 3:50.70 | 206848 | 224167
14 | 49:48.68 | 3:56.67 | 224168 | 241934
15 | 53:45.60 | 3:51.52 | 241935 | 259311
16 | 57:37.37 | 4:08.48 | 259312 | 277959
17 | 61:46.10 | 3:23.22 | 277960 | 293206


Track 1

Filename D:\填? MUZIC@!!!\Nightmares on Wax - My Definition [lossless]\01 - Paris - I Choose You - Paris - I Choose You.wav

Pre-gap length 0:00:02.00

Peak level 100.0 %
Track quality 100.0 %
Test CRC E55317D8
Copy CRC E55317D8
Accurately ripped (confidence 1) [F923ECC2]
Copy OK

Track 2

Filename D:\填? MUZIC@!!!\Nightmares on Wax - My Definition [lossless]\02 - Billy Wright - Summer Love - Billy Wright - Summer Love.wav

Peak level 100.0 %
Track quality 100.0 %
Test CRC E1921527
Copy CRC E1921527
Accurately ripped (confidence 1) [42AC90B4]
Copy OK

Track 3

Filename D:\填? MUZIC@!!!\Nightmares on Wax - My Definition [lossless]\03 - Das EFX - They Want EFX - Das EFX - They Want EFX.wav

Peak level 100.0 %
Track quality 100.0 %
Test CRC 685E656B
Copy CRC 685E656B
Accurately ripped (confidence 1) [9876074F]
Copy OK

Track 4

Filename D:\填? MUZIC@!!!\Nightmares on Wax - My Definition [lossless]\04 - Camp Lo - Black Nostaljack - Camp Lo - Black Nostaljack.wav

Peak level 100.0 %
Track quality 99.9 %
Test CRC 65349168
Copy CRC 65349168
Accurately ripped (confidence 1) [9B2AFB45]
Copy OK

Track 5

Filename D:\填? MUZIC@!!!\Nightmares on Wax - My Definition [lossless]\05 - Frusic Wola - Polish - Frusic Wola - Polish.wav

Peak level 100.0 %
Track quality 99.9 %
Test CRC 56D45113
Copy CRC 56D45113
Accurately ripped (confidence 1) [4040DB85]
Copy OK

Track 6

Filename D:\填? MUZIC@!!!\Nightmares on Wax - My Definition [lossless]\06 - Black Grass - Going Home - Black Grass - Going Home.wav

Peak level 100.0 %
Track quality 100.0 %
Test CRC 6592D7F4
Copy CRC 6592D7F4
Accurately ripped (confidence 1) [102FEA97]
Copy OK

Track 7

Filename D:\填? MUZIC@!!!\Nightmares on Wax - My Definition [lossless]\07 - JD73 - Happy People - JD73 - Happy People.wav

Peak level 100.0 %
Track quality 100.0 %
Test CRC 721B251E
Copy CRC 721B251E
Accurately ripped (confidence 1) [1C83C43B]
Copy OK

Track 8

Filename D:\填? MUZIC@!!!\Nightmares on Wax - My Definition [lossless]\08 - Blade - Lyrical Maniac - Blade - Lyrical Maniac.wav

Peak level 100.0 %
Track quality 100.0 %
Test CRC 236B9490
Copy CRC 236B9490
Accurately ripped (confidence 1) [4CC1EE31]
Copy OK

Track 9

Filename D:\填? MUZIC@!!!\Nightmares on Wax - My Definition [lossless]\09 - Greedy B - Cool Breeze - Greedy B - Cool Breeze.wav

Peak level 100.0 %
Track quality 100.0 %
Test CRC AC7F45E2
Copy CRC AC7F45E2
Accurately ripped (confidence 1) [98CEF3D3]
Copy OK

Track 10

Filename D:\填? MUZIC@!!!\Nightmares on Wax - My Definition [lossless]\10 - Farid - Sunday Paper - Farid - Sunday Paper.wav

Peak level 100.0 %
Track quality 100.0 %
Test CRC C9C3948D
Copy CRC C9C3948D
Accurately ripped (confidence 1) [E198B308]
Copy OK

Track 11

Filename D:\填? MUZIC@!!!\Nightmares on Wax - My Definition [lossless]\11 - Western Roots - Rockers Galore - Western Roots - Rockers Galore.wav

Peak level 100.0 %
Track quality 100.0 %
Test CRC B464DA1A
Copy CRC B464DA1A
Accurately ripped (confidence 1) [76241CE2]
Copy OK

Track 12

Filename D:\填? MUZIC@!!!\Nightmares on Wax - My Definition [lossless]\12 - The Nextmen feat. Demolition Man - Piece Of The Pie - The Nextmen feat. Demolition Man - Piece Of The Pie.wav

Peak level 100.0 %
Track quality 100.0 %
Test CRC 20687846
Copy CRC 20687846
Accurately ripped (confidence 1) [9D44949A]
Copy OK

Track 13

Filename D:\填? MUZIC@!!!\Nightmares on Wax - My Definition [lossless]\13 - The Equals - Funky Like A Train - The Equals - Funky Like A Train.wav

Peak level 100.0 %
Track quality 100.0 %
Test CRC C8633F42
Copy CRC C8633F42
Accurately ripped (confidence 1) [422ACEB3]
Copy OK

Track 14

Filename D:\填? MUZIC@!!!\Nightmares on Wax - My Definition [lossless]\14 - Ingram - DJs Delight - Ingram - DJs Delight.wav

Peak level 100.0 %
Track quality 100.0 %
Test CRC 2BF2547A
Copy CRC 2BF2547A
Accurately ripped (confidence 1) [1316D0C0]
Copy OK

Track 15

Filename D:\填? MUZIC@!!!\Nightmares on Wax - My Definition [lossless]\15 - Leisure Allstars - Get Your Hands In The Air - Leisure Allstars - Get Your Hands In The Air.wav

Peak level 100.0 %
Track quality 100.0 %
Test CRC 880C61DF
Copy CRC 880C61DF
Accurately ripped (confidence 1) [8C2B0607]
Copy OK

Track 16

Filename D:\填? MUZIC@!!!\Nightmares on Wax - My Definition [lossless]\16 - Pablo - Roll Call - Pablo - Roll Call.wav

Peak level 100.0 %
Track quality 100.0 %
Test CRC 254A0EFE
Copy CRC 254A0EFE
Accurately ripped (confidence 1) [12C11C6A]
Copy OK

Track 17

Filename D:\填? MUZIC@!!!\Nightmares on Wax - My Definition [lossless]\17 - The Crusaders - Don't Let It Get You Down - The Crusaders - Don't Let It Get You Down.wav

Peak level 100.0 %
Track quality 100.0 %
Test CRC 0C9E8A2C
Copy CRC 0C9E8A2C
Accurately ripped (confidence 1) [A57A555C]
Copy OK


All tracks accurately ripped

No errors occurred

End of status report

本文档md5值为B40C8E5564A085110291BD8E03354461,如遇无法解压密码出错之类问题,请自行校验文件完整性

小贴士

纳米盘下载如遇“纳米盘提示:该资源已经被用户删除或者匿名上传文件超过保存期限!”请右键点击链接直接用纳米机器人下载,半个月内绝对有效;RayFile下载如无法打开页面或下载无进度,请更新客户端软件。

音乐供档时间随相应网盘时效,过期不候,请勿要求补档

本音乐仅作试听之用,请于下载后24小时内删除,若喜欢请购买正版

点我下载 解压密码:upload by shjam

  评论这张
 
阅读(177)| 评论(0)
推荐 转载

历史上的今天

在LOFTER的更多文章

评论

<#--最新日志,群博日志--> <#--推荐日志--> <#--引用记录--> <#--博主推荐--> <#--随机阅读--> <#--首页推荐--> <#--历史上的今天--> <#--被推荐日志--> <#--上一篇,下一篇--> <#-- 热度 --> <#-- 网易新闻广告 --> <#--右边模块结构--> <#--评论模块结构--> <#--引用模块结构--> <#--博主发起的投票-->
 
 
 
 
 
 
 
 
 
 
 
 
 
 

页脚

网易公司版权所有 ©1997-2018